ExtraTorrent

Login   |   Register   |   Home





Browse Torrents
| TorrentCounter | Search Cloud | | | | | FAQ  

» » Titanic's Final Moments

Loading...
Torrent Download                                Magnet Link                                      Watch Online


Download Titanic's Final Moments extratorrent


Download torrent:
Info hash EE9ADF5001F11C4FB50BCC5DF10482144FE2779F
Torrent ID13952807
Comments: Sort Read Comments
Category: Movies
Health:
 Seeders: n/a |  Leechers: n/a |  Completed: n/a
Torrent language: English English
Total Size: 108.0 MB
Uploader: tornet Trusted Uploader Site Friend Superman Sun
Torrent added: 07-12-2018, 00:45:07
Views: 109



Extratorrent Download Torrent RMS «Titanic»s forlis – Wikipedia
https://no.wikipedia.org/wiki/RMS_«Titanic»s_forlis
Titanic facts - agenciapyme
eszlinger.com/titanic/titanfacts.html
Sinking of the RMS Titanic - Wikipedia
https://en.wikipedia.org/wiki/Sinking_of_the_RMS_Titanic
Legends and myths regarding RMS Titanic - …
https://en.wikipedia.org/wiki/Legends_and_myths_regarding_RMS_Titanic
Jack Dawson | James Cameron's Titanic Wiki | …
https://jamescameronstitanic.fandom.com/wiki/Jack_Dawson
R.M.S. Titanic History Timeline - keyflux.com
www.keyflux.com/titanic/timeline.htm
Top 10 Misconceptions About The Titanic …
listverse.com/2017/04/13/top-10-misconceptions-about-the-titanic-debunked
The Captain of the Titanic — Ultimate Titanic
https://www.ultimatetitanic.com/the-captain-of-the-titanic
100 unsinkable facts about the Titanic
https://www.jsonline.com/story/entertainment/2017/12/19/100-unsinkable-facts-titanic/...
Titanic | Southampton Titanic Trail - Discover …
https://www.dailyecho.co.uk/heritage/titanic/trail





General

Complete name Titanic's Final Moments - The True Story.mp4

Format : MPEG-4
Format profile : Base Media
Codec ID : isom (isom/iso2/avc1/mp41)
File size : 108 MiB
Duration : 46 min 38 s
Overall bit rate : 324 kb/s
Writing application : Lavf54.63.104
Video
ID : 1
Format : AVC
Format/Info : Advanced Video Codec
Format profile : [email protected]
Format settings : CABAC / 3 Ref Frames
Format settings, CABAC : Yes
Format settings, ReFrames : 3 frames
Codec ID : avc1
Codec ID/Info : Advanced Video Coding
Duration : 46 min 38 s
Bit rate : 192 kb/s
Width : 640 pixels
Height : 352 pixels
Display aspect ratio : 16:9
Frame rate mode : Constant
Frame rate : 25.000 FPS
Color space : YUV
Chroma subsampling : 4:2:0
Bit depth : 8 bits
Scan type : Progressive
Bits/(Pixel*Frame) : 0.034
Stream size : 64.0 MiB (59%)
Codec configuration box : avcC
Audio
ID : 2
Format : AAC LC
Format/Info : Advanced Audio Codec Low Complexity
Codec ID : mp4a-40-2
Duration : 46 min 38 s
Bit rate mode : Constant
Bit rate : 126 kb/s
Channel(s) : 2 channels
Channel layout : L R
Sampling rate : 44.1 kHz
Frame rate : 43.066 FPS (1024 SPF)
Compression mode : Lossy
Stream size : 41.9 MiB (39%)
Default : Yes
Alternate group : 1

Please ...Seed... Thank you







Related Torrents




Recent Searches

Home - Browse Torrents - Upload Torrent - Recent Torrents - Login - Register - FAQ

Can't load ExtraTorrent.Network
2006-2018 ExtraTorrent.Network