ExtraTorrent

Login   |   Register   |   Home
Loading...
Browse Torrents
| TorrentCounter | Search Cloud | | | | | FAQ  

» » Extraordinary Mission 2017 1080p BluRray Chinese DD5 1 Hindi DD2 0 x265 HEVC-MCUMoviesHome Com

Download Extraordinary Mission 2017 1080p BluRray Chinese DD5 1 Hindi DD2 0 x265 HEVC-MCUMoviesHome Com extratorrent


Download torrent: Download Magnet Extraordinary Mission 2017 1080p BluRray Chinese DD5 1 Hindi DD2 0 x265 HEVC-MCUMoviesHome Com
Info hash C5B100B8227AE630C5632B64B9975149347861BD
Torrent ID13976840
Comments: Sort Read Comments
Category: Movies
Health:
 Seeders: 1 |  Leechers: n/a |  Completed: n/a
Torrent language: Hindi Hindi
Total Size: 4.3 GB
Uploader: TeamMCU Trusted Uploader Site Friend Superman Sun
Torrent added: 02-01-2019, 21:45:06
Views: 92



Extratorrent Download Torrent



Extraordinary.Mission.2017.1080p.BluRray.Chinese.DD5.1.Hindi.DD2.0.x265.HEVC-MCUMoviesHome.Com


Visit our site: https://mcumovieshome.com


*** If The Torrent is Dead, Visit Our Site for Direct Links. ***

Code:

General
Format : Matroska
Format version : Version 4
File size : 4.34 GiB
Duration : 2 h 1 min
Overall bit rate : 5 111 kb/s
Movie name : MCUMoviesHome.Com | Extraordinary.Mission.2017.1080p.BluRray.Chinese.DD5.1.Hindi.DD2.0.x265.HEVC-MCUMoviesHome.Com
Encoded date : UTC 2019-01-02 21:21:00
Writing application : mkvmerge v27.0.0 ('Metropolis') 64-bit
Writing library : libebml v1.3.6 + libmatroska v1.4.9
Cover : Yes
Attachments : Cover.jpeg

Video
ID : 1
Format : HEVC
Format/Info : High Efficiency Video Coding
Format profile : [email protected]@Main
Codec ID : V_MPEGH/ISO/HEVC
Duration : 2 h 1 min
Bit rate : 4 501 kb/s
Width : 1 920 pixels
Height : 804 pixels
Display aspect ratio : 2.40:1
Frame rate mode : Constant
Frame rate : 23.976 (24000/1001) FPS
Color space : YUV
Chroma subsampling : 4:2:0
Bit depth : 8 bits
Bits/(Pixel*Frame) : 0.122
Stream size : 3.82 GiB (88%)
Title : MCUMoviesHome.Com
Default : Yes
Forced : No
Color range : Limited
Color primaries : BT.709
Transfer characteristics : BT.709
Matrix coefficients : BT.709

Audio #1
ID : 2
Format : AC-3
Format/Info : Audio Coding 3
Commercial name : Dolby Digital
Codec ID : A_AC3
Duration : 2 h 1 min
Bit rate mode : Constant
Bit rate : 384 kb/s
Channel(s) : 6 channels
Channel layout : L R C LFE Ls Rs
Sampling rate : 48.0 kHz
Frame rate : 31.250 FPS (1536 SPF)
Bit depth : 16 bits
Compression mode : Lossy
Stream size : 334 MiB (8%)
Title : MCUMoviesHome.Com
Language : Chinese
Service kind : Complete Main
Default : No
Forced : No

Audio #2
ID : 4
Format : AC-3
Format/Info : Audio Coding 3
Commercial name : Dolby Digital
Codec ID : A_AC3
Duration : 2 h 1 min
Bit rate mode : Constant
Bit rate : 224 kb/s
Channel(s) : 2 channels
Channel layout : L R
Sampling rate : 48.0 kHz
Frame rate : 31.250 FPS (1536 SPF)
Bit depth : 16 bits
Compression mode : Lossy
Delay relative to video : 100 ms
Stream size : 195 MiB (4%)
Title : MCUMoviesHome.Com
Language : Hindi
Service kind : Complete Main
Default : Yes
Forced : No

Text
ID : 3
Format : UTF-8
Codec ID : S_TEXT/UTF8
Codec ID/Info : UTF-8 Plain Text
Duration : 1 h 54 min
Bit rate : 23 b/s
Count of elements : 900
Stream size : 20.1 KiB (0%)
Title : MCUMoviesHome.Com
Language : English
Default : No
Forced : No








Code:

Sources:
Video: Extraordinary.Mission.2017.1080p.BluRay.x264-SPRiNTER
Audio: Extraordinary Mission (2017) Indian Dubbed Hindi Audio DD 2.0 CH ~ -=!Dr.STAR!=-







   


Related Torrents
Browse Movies Torrents Related Torrents added recently in our database RSS  
Added  Size  Sort S  Sort L  Sort Health
Download Magnet English  American_Dad_S15E06_XviD-AFG[TGx] in TV, by mazemaze16 6 minutes 200.2 MB 42530 33513
Download Magnet English  American_Dad_S15E06_720p_WEBRip_x265-MiNX[TGx] in TV, by mazemaze16 6 minutes 72.8 MB 31149 10036
Download Magnet English  Suburban_Gangsters_S01E01_480p_x264-mSD_[eztv] in TV, by EZTVag 6 minutes 152.6 MB 933 31750
Download Magnet English  American_Dad_S15E06_480p_x264-mSD_[eztv] in TV, by EZTVag 6 minutes 51.0 MB 15273 24682
Download Magnet English  Diesel_Brothers_S05E07_480p_x264-mSD_[eztv] in TV, by EZTVag 6 minutes 249.0 MB 74823 32847
Download Magnet English  Tommy_Page_-_Paintings_in_My_Mind_Mp3_(V0)___SSloco in Music, by Chicken1337 11 minutes 79.7 MB 43264 69873
Download Magnet English  American_Dad_S15E06_720p_WEBRip_x264-TBS[ettv] in TV, by EtHD 16 minutes 152.4 MB 60708 78188
Download Magnet English  Diesel_Brothers_S05E07_720p_WEB_x264-TBS_[eztv] in TV, by EZTVag 16 minutes 955.8 MB 51965 59843
Download Magnet English  Diesel_Brothers_S05E07_WEB_x264-TBS_[eztv] in TV, by EZTVag 16 minutes 341.5 MB 27261 7119
Download Magnet English  Egypts_Unexplained_Files_S01E08_Ramses_Forbidden_City_480p_x___ in TV, by EZTVag 16 minutes 206.1 MB 76688 79243




Recent Searches

Home - Browse Torrents - Upload Torrent - Recent Torrents - Login - Register - FAQ

Can't load ExtraTorrent.Network
2006-2018 ExtraTorrent.Network