ExtraTorrent

Login   |   Register   |   Home
Loading...
Browse Torrents
| TorrentCounter | Search Cloud | | | | | FAQ  

» » Aquaman (2018) Dual Audio 720p IMAX BluRay [Hindi-English] x264 1 7GB-HD

Download Aquaman (2018) Dual Audio 720p IMAX BluRay [Hindi-English] x264 1 7GB-HD extratorrent


Download torrent: Download Magnet Aquaman (2018) Dual Audio 720p IMAX BluRay [Hindi-English] x264 1 7GB-HD
Info hash 9C39D87967DFFE4A1F96464217F1B20620AEBDF5
Torrent ID14019882
Comments: Sort Read Comments
Category: Movies
Health:
 Seeders: 1 |  Leechers: 3 |  Completed: n/a
Torrent language: Hindi Hindi
Total Size: 1.7 GB
Uploader: HDFilmBoss Trusted Uploader Site Friend Superman Sun
Torrent added: 14-03-2019, 07:20:04
Views: 108



Extratorrent Download Torrent



https://1337xhd.mobi/





General
Complete name :Aquaman (2018) Dual Audio 720p IMAX BluRay [Hindi-English] x264 1.7GB-1337xHD.mkv
Format : Matroska
Format version : Version 4
File size : 1.65 GiB
Duration : 2 h 23 min
Overall bit rate : 1 648 kb/s
Movie name : www.1337xHD.Mobi
Encoded date : UTC 2019-03-14 20:53:52
Writing application : mkvmerge v31.0.0 ('Dolores In A Shoestand') 64-bit
Writing library : libebml v1.3.6 + libmatroska v1.4.9

Video
ID : 1
Format : AVC
Format/Info : Advanced Video Codec
Format profile : [email protected]
Format settings : CABAC / 4 Ref Frames
Format settings, CABAC : Yes
Format settings, RefFrames : 4 frames
Codec ID : V_MPEG4/ISO/AVC
Duration : 2 h 23 min
Bit rate : 1 536 kb/s
Width : 1 280 pixels
Height : 534 pixels
Display aspect ratio : 2.40:1
Original display aspect ratio : 2.40:1
Frame rate mode : Constant
Frame rate : 23.976 (23976/1000) FPS
Color space : YUV
Chroma subsampling : 4:2:0
Bit depth : 8 bits
Scan type : Progressive
Bits/(Pixel*Frame) : 0.094
Stream size : 1.52 GiB (92%)
Title : www.1337xHD.Mobi
Writing library : x264 core 148
Default : Yes
Forced : No

Audio
ID : 2
Format : AAC LC
Format/Info : Advanced Audio Codec Low Complexity
Codec ID : A_AAC-2
Duration : 2 h 23 min
Bit rate : 129 kb/s
Channel(s) : 2 channels
Channel layout : L R
Sampling rate : 44.1 kHz
Frame rate : 43.066 FPS (1024 SPF)
Compression mode : Lossy
Delay relative to video : -23 ms
Stream size : 132 MiB (8%)
Title : www.1337xHD.Mobi
Language : Hindi
Default : Yes
Forced : No

















   


Related Torrents
Browse Movies Torrents Related Torrents added recently in our database RSS  
Added  Size  Sort S  Sort L  Sort Health
Download Magnet English  Gentleman_Jack_S01E05_480p_x264-mSD_[eztv] in TV, by EZTVag 4 minutes 200.9 MB 51296 31765
Download Magnet English  False_Flag_Danger_Zone:_Would_Israel_Dare_to_Sink_U_S__Battl___ in TV, by roflcopter 4 minutes 602.2 MB 59597 46499
Download Magnet English  Gentleman_Jack_S01E05_XviD-AFG[TGx] in TV, by mazemaze16 4 minutes 568.7 MB 79037 65876
Download Magnet English  Chernobyl_S01E03_WEB_x264-PHOENiX[TGx] in TV, by mazemaze16 4 minutes 334.2 MB 58511 53411
Download Magnet English  Opera_(1987)_[BluRay]_[1080p]_[YTS]_[YIFY] in Movies, by YTSAGx 9 minutes 1.7 GB 3310 78662
Download Magnet English  Gentleman_Jack_S01E05_720p_WEBRip_x264-TBS[TGx] in TV, by mazemaze16 14 minutes 1.3 GB 13011 77128
Download Magnet English  Gentleman_Jack_S01E05_720p_WEBRip_x264-TBS_[eztv] in TV, by EZTVag 14 minutes 1.3 GB 47103 4506
Download Magnet English  90_Day_Fiance_What_Now_s03e04_REAL_HDTV_WebRip_allone in TV, by allone 14 minutes 555.4 MB 9652 8433
Download Magnet English  Ghosts-S01-Series_1--2019-BBC-720p-w_subs-x265-HEVC in TV, by uggauga 14 minutes 901.6 MB 46619 38063
Download Magnet English  Suburban_Gangsters_S01E01_480p_x264-mSD[TGx] in TV, by mazemaze16 14 minutes 153.1 MB 46470 86130




Recent Searches

Home - Browse Torrents - Upload Torrent - Recent Torrents - Login - Register - FAQ

Can't load ExtraTorrent.Network
2006-2018 ExtraTorrent.Network