ExtraTorrent

Login   |   Register   |   Home
Loading...
Browse Torrents
| TorrentCounter | Search Cloud | | | | | FAQ  

» » Triple Frontier 2019 1080p WEBRip Dual Audio Hindi English AAC x264 MoviesMB

Download Triple Frontier 2019 1080p WEBRip Dual Audio Hindi English AAC x264 MoviesMB extratorrent


Download torrent: Download Magnet Triple Frontier 2019 1080p WEBRip Dual Audio Hindi English AAC x264 MoviesMB
Info hash 3450E4B81D208B7DB8990C67EA88C640BB51C223
Torrent ID14019920
Comments: Sort Read Comments
Category: Movies
Health:
 Seeders: 4 |  Leechers: 3 |  Completed: 452
Torrent language: Hindi Hindi
Total Size: 1.7 GB
Uploader: abuhamza420 Trusted Uploader Site Friend Superman Sun
Torrent added: 14-03-2019, 09:00:05
Views: 33



Extratorrent Download Torrent Triple Frontier 2019 HD720P X264 AAC Torrent …
https://daytorrents.com/Triple-Frontier-2019-HD720P-X264-AAC-torrent-12407277.html
Triple Frontier 2019 1080p WEBRip Dual Audio …
https://daytorrents.com/Triple-Frontier-2019-1080p-WEBRip-Dual-Audio-Hindi-English-AAC...
Triple.Frontier.2019.1080p.WEBRip.Dual.Audio.Hindi.English ...
www.ciliwa.co/cili/3450e4b81d208b7db8990c67ea88c640bb51c223
prostylex : Triple Frontier (2019) 720p NF WEB-DL …
sophisticatepageantsintl.com/torrents-details.php?id=199037&hit=1
Delhi Crime 2019 WebRip S01 E01-07 Dual Audio …
https://limetorrent.info/Delhi-Crime-2019-WebRip-S01-E01-07-Dual-Audio-[Hindi-5-1...
FireBrand.2019.1080p.WEBRip.Dual.Audio.Hindi.Marathi.AAC ...
cilifanhaoba.com/i/fMsOQVG_Ty9QxyV6ozAtPGgrZbA.html
Triple Frontier - 阿狸磁力链接搜索 - aliciliba.cc
aliciliba.cc/list/Triple Frontier/1-0-0








Triple.Frontier.2019.1080p.WEBRip.Dual.Audio.Hindi.English.AAC.x264.MoviesMB


MoviesMB


Downloadhub.Icu


Buy PowerFull VPS And RDP From RDPArena.com

Use Coupon EXTRADESI get 30% Discount on All RDP and VPS Plans






ideo
ID : 1
Format : AVC
Format/Info : Advanced Video Codec
Format profile : [email protected]
Format settings : CABAC / 5 Ref Frames
Format settings, CABAC : Yes
Format settings, RefFrames : 5 frames
Codec ID : V_MPEG4/ISO/AVC
Duration : 2 h 5 min
Bit rate : 1 592 kb/s
Width : 1 920 pixels
Height : 910 pixels
Display aspect ratio : 2.110
Frame rate mode : Constant
Frame rate : 24.000 FPS
Color space : YUV
Chroma subsampling : 4:2:0
Bit depth : 8 bits
Scan type : Progressive
Bits/(Pixel*Frame) : 0.038
Stream size : 1.39 GiB (86%)
Title : MoviesMB
Writing library : x264 core 157 r2935 545de2f
Language : English
Default : Yes
Forced : No
Color range : Limited
Color primaries : Generic film
Transfer characteristics : BT.709
Matrix coefficients : BT.709

Audio #1
ID : 2
Format : AAC
Format/Info : Advanced Audio Codec
Format profile : LC
Codec ID : A_AAC-2
Duration : 2 h 5 min
Bit rate : 128 kb/s
Channel(s) : 6 channels
Channel positions : Front: L C R, Side: L R, LFE
Sampling rate : 48.0 kHz
Frame rate : 46.875 FPS (1024 SPF)
Compression mode : Lossy
Delay relative to video : 9 ms
Stream size : 115 MiB (7%)
Title : MoviesMB
Language : Hindi
Default : Yes
Forced : No

Audio #2
ID : 3
Format : AAC
Format/Info : Advanced Audio Codec
Format profile : LC
Codec ID : A_AAC-2
Duration : 2 h 5 min
Bit rate : 128 kb/s
Channel(s) : 6 channels
Channel positions : Front: L C R, Side: L R, LFE
Sampling rate : 48.0 kHz
Frame rate : 46.875 FPS (1024 SPF)
Compression mode : Lossy
Delay relative to video : 9 ms
Stream size : 114 MiB (7%)
Title : MoviesMB
Language : English
Default : No
Forced : No

Text #1
ID : 4
Format : UTF-8
Codec ID : S_TEXT/UTF8
Codec ID/Info : UTF-8 Plain Text
Duration : 1 h 53 min
Bit rate : 5 b/s
Count of elements : 175
Stream size : 4.16 KiB (0%)
Title : MoviesMB
Language : English
Default : Yes
Forced : Yes

Text #2
ID : 5
Format : UTF-8
Codec ID : S_TEXT/UTF8
Codec ID/Info : UTF-8 Plain Text
Duration : 1 h 56 min
Bit rate : 49 b/s
Count of elements : 1425
Stream size : 42.2 KiB (0%)
Title : MoviesMB
Language : English
Default : No
Forced : No

Text #3
ID : 6
Format : UTF-8
Codec ID : S_TEXT/UTF8
Codec ID/Info : UTF-8 Plain Text
Duration : 1 h 57 min
Bit rate : 64 b/s
Count of elements : 1763
Stream size : 55.6 KiB (0%)
Title : MoviesMB
Sub Language : English (Forced), English, English (SDH), Arabic, Chinese (Simplified),
Chinese (Traditional), Danish, Dutch, Finnish, French, German, Greek,
Hebrew, Indonesian, Italian, Japanese, Korean, Norwegian, Polish,
Portuguese, Portuguese (Brazilian), Romanian, Russian, Spanish, Spanish,
Swedish, Thai, Turkish















   


Related Torrents
Browse Movies Torrents Related Torrents added recently in our database RSS  
Added  Size  Sort S  Sort L  Sort Health
Download Magnet English  Gentleman_Jack_S01E05_480p_x264-mSD_[eztv] in TV, by EZTVag 2 minutes 200.9 MB 95110 24452
Download Magnet English  False_Flag_Danger_Zone:_Would_Israel_Dare_to_Sink_U_S__Battl___ in TV, by roflcopter 2 minutes 602.2 MB 62359 98375
Download Magnet English  Gentleman_Jack_S01E05_XviD-AFG[TGx] in TV, by mazemaze16 2 minutes 568.7 MB 62254 12056
Download Magnet English  Chernobyl_S01E03_WEB_x264-PHOENiX[TGx] in TV, by mazemaze16 2 minutes 334.2 MB 94047 63550
Download Magnet English  Opera_(1987)_[BluRay]_[1080p]_[YTS]_[YIFY] in Movies, by YTSAGx 7 minutes 1.7 GB 86880 75111
Download Magnet English  Gentleman_Jack_S01E05_720p_WEBRip_x264-TBS[TGx] in TV, by mazemaze16 12 minutes 1.3 GB 65677 25609
Download Magnet English  Gentleman_Jack_S01E05_720p_WEBRip_x264-TBS_[eztv] in TV, by EZTVag 12 minutes 1.3 GB 52426 71896
Download Magnet English  90_Day_Fiance_What_Now_s03e04_REAL_HDTV_WebRip_allone in TV, by allone 12 minutes 555.4 MB 85431 41757
Download Magnet English  Ghosts-S01-Series_1--2019-BBC-720p-w_subs-x265-HEVC in TV, by uggauga 12 minutes 901.6 MB 8703 44151
Download Magnet English  Suburban_Gangsters_S01E01_480p_x264-mSD[TGx] in TV, by mazemaze16 12 minutes 153.1 MB 84458 28095




Recent Searches

Home - Browse Torrents - Upload Torrent - Recent Torrents - Login - Register - FAQ

Can't load ExtraTorrent.Network
2006-2018 ExtraTorrent.Network