ExtraTorrent

Login   |   Register   |   Home
Loading...
Browse Torrents
| Search Cloud | | | | | FAQ  
» » Fantastic Beasts The Crimes Of Grindelwald 2018 1080p BDRip x264 AC3-iCMAL

Download Fantastic Beasts The Crimes Of Grindelwald 2018 1080p BDRip x264 AC3-iCMAL extratorrent


Download torrent: Download Magnet Fantastic Beasts The Crimes Of Grindelwald 2018 1080p BDRip x264 AC3-iCMAL
Info hash CE0CF3008E16BEDB3148097ABE14EA868543C850
Torrent ID14019956
Comments: Sort Read Comments
Category: Movies
Health:
 Seeders: 1 |  Leechers: 7 |  Completed: n/a
Torrent language: English English
Total Size: 2.2 GB
Uploader: iCMAL Trusted Uploader Site Friend Superman Sun
Torrent added: 14-03-2019, 10:55:07
Views: 52



Extratorrent Download Torrent Subtitrari Fantastic Beasts: The Crimes of Grindelwald 2018
subtitrari.regielive.ro/fantastic-beasts-the-crimes-of-grindelwald-32497
Fantastic Beasts The Crimes Of Grindelwald 2018 …
www.scnsrc.me/fantastic-beasts-the-crimes-of-grindelwald-2018-1080p-bluray-x264-blow
Fantastic.Beasts.The.Crimes.Of.Grindelwald.2018.1080p ...
moviefiles.org/file.php?id=794
Fantastic Beasts The Crimes Of Grindelwald 2018 …
x1337x.se/torrent/3648518/Fantastic-Beasts-The-Crimes-Of-Grindelwald-2018...
Fantastic Beasts The Crimes Of Grindelwald 2018 …
btzhongzifuli.com/one/qsqqmHEglXkb0moWlzt1zA7yuRm.html
Fantastic Beasts: The Crimes of Grindelwald …
www.yourmovie.org/fantastic-beasts-the-crimes-of-grindelwald-2018-720p-1080p...
Fantastic Beasts: The Crimes of Grindelwald (2018 ...
subdl.com/s/subtitle/sd12272/fantastic-beasts-and-where-to-find-them-2

Fantastic Beasts The Crimes Of Grindelwald 2018 1080p BDRip x264 AC3-iCMAL Quote:General Unique ID : 207299918525752271081681018787055710373 (0x9BF4831616647E48B76549D961D6B0A5) Complete name : C:\Users\Administrator\Downloads\Fantastic Beasts The Crimes Of Grindelwald 2018 1080p BDRip x264 AC3-iCMAL.mkv Format : Matroska Format version : Version 2 File size : 2.19 GiB Duration : 2 h 13 min Overall bit rate : 2 341 kb/s Encoded date : UTC 2019-03-14 10:29:24 Writing application : mkvmerge v7.0.0 ('Where We Going') 32bit built on Jun 9 2014 15:08:34 Writing library : libebml v1.3.0 + libmatroska v1.4.1 Video ID : 1 Format : AVC Format/Info : Advanced Video Codec Format profile : [email protected] Format settings : CABAC / 4 Ref Frames Format settings, CABAC : Yes Format settings, ReFrames : 4 frames Codec ID : V_MPEG4/ISO/AVC Duration : 2 h 13 min Bit rate : 1 891 kb/s Width : 1 904 pixels Height : 800 pixels Display aspect ratio : 2.40:1 Frame rate mode : Constant Frame rate : 23.976 (24000/1001) FPS Color space : YUV Chroma subsampling : 4:2:0 Bit depth : 8 bits Scan type : Progressive Bits/(Pixel*Frame) : 0.052 Stream size : 1.77 GiB (81%) Writing library : x264 core 142 r2431 ac76440 Encoding settings : cabac=1 / ref=3 / deblock=1:0:0 / analyse=0x3:0x113 / me=hex / subme=7 / psy=1 / psy_rd=1.00:0.00 / mixed_ref=1 / me_range=16 / chroma_me=1 / trellis=1 / 8x8dct=1 / cqm=0 / deadzone=21,11 / fast_pskip=1 / chroma_qp_offset=-2 / threads=6 / lookahead_threads=1 / sliced_threads=0 / nr=0 / decimate=1 / interlaced=0 / bluray_compat=0 / constrained_intra=0 / bframes=3 / b_pyramid=2 / b_adapt=1 / b_bias=0 / direct=1 / weightb=1 / open_gop=0 / weightp=2 / keyint=240 / keyint_min=23 / scenecut=40 / intra_refresh=0 / rc_lookahead=40 / rc=crf / mbtree=1 / crf=23.0 / qcomp=0.60 / qpmin=0 / qpmax=69 / qpstep=4 / ip_ratio=1.40 / aq=1:1.00 Default : Yes Forced : No Audio ID : 2 Format : AC-3 Format/Info : Audio Coding 3 Commercial name : Dolby Digital Codec ID : A_AC3 Duration : 2 h 13 min Bit rate mode : Constant Bit rate : 448 kb/s Channel(s) : 6 channels Channel layout : L R C LFE Ls Rs Sampling rate : 48.0 kHz Frame rate : 31.250 FPS (1536 SPF) Bit depth : 16 bits Compression mode : Lossy Stream size : 429 MiB (19%) Language : English Service kind : Complete Main Default : Yes Forced : No


   


Related Torrents




Recent Searches

Home - Browse Torrents - Upload Torrent - Recent Torrents - Login - Register - FAQ

Can't load ExtraTorrent.Network
2006-2018 ExtraTorrent.Network