ExtraTorrent

Login   |   Register   |   Home
Loading...
Browse Torrents
| TorrentCounter | Search Cloud | | | | | FAQ  

» » Dil Jo Na Keh Saka 2017 Untouched WebDL Hindi 1080p AVC DDP 2 0 ESub - mkvCinemas [Telly]

Download Dil Jo Na Keh Saka 2017 Untouched WebDL Hindi 1080p AVC DDP 2 0 ESub - mkvCinemas [Telly] extratorrent


Download torrent: Download Magnet Dil Jo Na Keh Saka 2017 Untouched WebDL Hindi 1080p AVC DDP 2 0 ESub - mkvCinemas [Telly]
Info hash 3835CE9FE065BA2C3A69CAF4B2BBAB9065AFD7C1
Torrent ID14019985
Comments: Sort Read Comments
Category: Movies
Health:
 Seeders: 2 |  Leechers: 1 |  Completed: 1
Torrent language: Hindi Hindi
Total Size: 4.4 GB
Uploader: mkvCinemas Trusted Uploader Site Friend Superman Sun
Torrent added: 14-03-2019, 12:20:04
Views: 54



Extratorrent Download Torrent









********************************

Dil Jo Na Keh Saka 2017 Untouched WebDL Hindi 1080p AVC DDP 2.0 ESub - mkvCinemas [Telly]

********************************

Mediainfo:-
Format : Matroska
Format version : Version 4 / Version 2
File size : 4.38 GiB
Duration : 2h 5mn
Overall bit rate : 5 011 Kbps
Encoded date : UTC 2019-03-14 08:43:45
Writing application : mkvmerge v25.0.0 ('Prog Noir') 32-bit
Writing library : libebml v1.3.6 + libmatroska v1.4.9
DURATION : 02:04:04.281000000
NUMBER_OF_FRAMES : 1713
NUMBER_OF_BYTES : 56796
_STATISTICS_WRITING_APP : mkvmerge v25.0.0 ('Prog Noir') 32-bit
_STATISTICS_WRITING_DATE_UT : 2019-03-14 08:43:45
_STATISTICS_TAGS : BPS DURATION NUMBER_OF_FRAMES NUMBER_OF_BYTES

Video
ID : 1
Format : AVC
Format/Info : Advanced Video Codec
Format profile : [email protected]
Format settings, CABAC : Yes
Format settings, ReFrames : 4 frames
Codec ID : V_MPEG4/ISO/AVC
Duration : 2h 5mn
Bit rate : 4 688 Kbps
Width : 1 920 pixels
Height : 1 080 pixels
Display aspect ratio : 16:9
Frame rate mode : Constant
Frame rate : 25.000 fps
Color space : YUV
Chroma subsampling : 4:2:0
Bit depth : 8 bits
Scan type : Progressive
Bits/(Pixel*Frame) : 0.090
Stream size : 4.10 GiB (94%)
Default : Yes
Forced : No
Color primaries : BT.709
Transfer characteristics : BT.709
Matrix coefficients : BT.709
Color range : Limited

Audio
ID : 2
Format : E-AC-3
Format/Info : Audio Coding 3
Format settings, Endianness : Big
Codec ID : A_EAC3
Duration : 2h 5mn
Bit rate mode : Constant
Bit rate : 224 Kbps
Channel(s) : 2 channels
Channel positions : Front: L R
Sampling rate : 48.0 KHz
Compression mode : Lossy
Stream size : 200 MiB (4%)
Title : Hindi
Language : Hindi
Default : No
Forced : No

Text
ID : 3
Format : UTF-8
Codec ID : S_TEXT/UTF8
Codec ID/Info : UTF-8 Plain Text
Title : English [SDH]
Language : English
Default : No
Forced : No


********************************

Wherever you Share our Stuffs, Give Proper Credit to "mkvCinemas @Team Telly"
We Keep All Torrents. In case of re-seed, please pm.


********************************







********************************



********************************





   


Related Torrents
Browse Movies Torrents Related Torrents added recently in our database RSS  
Added  Size  Sort S  Sort L  Sort Health
Download Magnet English  American_Dad_S15E06_XviD-AFG[TGx] in TV, by mazemaze16 9 minutes 200.2 MB 74415 2337
Download Magnet English  American_Dad_S15E06_720p_WEBRip_x265-MiNX[TGx] in TV, by mazemaze16 9 minutes 72.8 MB 10612 79214
Download Magnet English  Suburban_Gangsters_S01E01_480p_x264-mSD_[eztv] in TV, by EZTVag 9 minutes 152.6 MB 75709 10147
Download Magnet English  American_Dad_S15E06_480p_x264-mSD_[eztv] in TV, by EZTVag 9 minutes 51.0 MB 48942 76652
Download Magnet English  Diesel_Brothers_S05E07_480p_x264-mSD_[eztv] in TV, by EZTVag 9 minutes 249.0 MB 78987 51010
Download Magnet English  Tommy_Page_-_Paintings_in_My_Mind_Mp3_(V0)___SSloco in Music, by Chicken1337 14 minutes 79.7 MB 24451 30874
Download Magnet English  American_Dad_S15E06_720p_WEBRip_x264-TBS[ettv] in TV, by EtHD 19 minutes 152.4 MB 98393 38981
Download Magnet English  Diesel_Brothers_S05E07_720p_WEB_x264-TBS_[eztv] in TV, by EZTVag 19 minutes 955.8 MB 15481 20910
Download Magnet English  Diesel_Brothers_S05E07_WEB_x264-TBS_[eztv] in TV, by EZTVag 19 minutes 341.5 MB 18122 34903
Download Magnet English  Egypts_Unexplained_Files_S01E08_Ramses_Forbidden_City_480p_x___ in TV, by EZTVag 19 minutes 206.1 MB 38950 18408




Recent Searches

Home - Browse Torrents - Upload Torrent - Recent Torrents - Login - Register - FAQ

Can't load ExtraTorrent.Network
2006-2018 ExtraTorrent.Network