ExtraTorrent

Login   |   Register   |   Home
Loading...
Browse Torrents
| TorrentCounter | Search Cloud | | | | | FAQ  

» » Banarasi Babu (1997) Hindi - 720p WEB-DL - x264 - AC3 -Sun George (Requested)

Download Banarasi Babu (1997) Hindi - 720p WEB-DL - x264 - AC3 -Sun George (Requested) extratorrent


Download torrent: Download Magnet Banarasi Babu (1997) Hindi - 720p WEB-DL - x264 - AC3 -Sun George (Requested)
Info hash 15A733D37F71C58214F948488CF7719FCD0180BE
Torrent ID14019996
Comments: Sort Read Comments
Category: Movies
Health:
 Seeders: n/a |  Leechers: n/a |  Completed: n/a
Torrent language: Hindi Hindi
Total Size: 1.5 GB
Uploader: Sungeorge Trusted Uploader Site Friend Superman Sun
Torrent added: 14-03-2019, 12:50:04
Views: 83



Extratorrent Download Torrent



Banarasi Babu (1997) Hindi - 720p WEB-DL - x264 - AC3 -Sun George (Requested)






https://www.imdb.com/title/tt0118680/











===================================================================


Source : DTOne (Thanks)


General
Format : Matroska
Format version : Version 4
File size : 1.44 GiB
Duration : 1 h 59 min
Overall bit rate : 1 731 kb/s
Movie name : Banarasi Babu (1997) Hindi - 720p WEB-DL - x264 - AC3 -Sun George (Requested)


===================================================================


Video
ID : 1
Format : AVC
Format/Info : Advanced Video Codec
Format profile : [email protected]
Format settings : CABAC / 5 Ref Frames
Format settings, CABAC : Yes
Format settings, RefFrames : 5 frames
Codec ID : V_MPEG4/ISO/AVC
Duration : 1 h 59 min
Bit rate : 1 500 kb/s
Width : 1 280 pixels
Height : 720 pixels
Display aspect ratio : 16:9
Frame rate mode : Constant
Frame rate : 25.000 FPS
Color space : YUV
Chroma subsampling : 4:2:0
Bit depth : 8 bits
Scan type : Progressive
Bits/(Pixel*Frame) : 0.065
Stream size : 1.25 GiB (87%)
Title : Sun George


===================================================================


Audio
ID : 2
Format : AC-3
Format/Info : Audio Coding 3
Commercial name : Dolby Digital
Codec ID : A_AC3
Duration : 1 h 59 min
Bit rate mode : Constant
Bit rate : 224 kb/s
Channel(s) : 2 channels
Channel layout : L R
Sampling rate : 44.1 kHz
Frame rate : 28.711 FPS (1536 SPF)
Bit depth : 16 bits
Compression mode : Lossy
Stream size : 191 MiB (13%)
Title : Sun George
Language : Hindi
Service kind : Complete Main
Default : Yes
Forced : No

















   


Related Torrents
Browse Movies Torrents Related Torrents added recently in our database RSS  
Added  Size  Sort S  Sort L  Sort Health
Download Magnet English  Opera_(1987)_[BluRay]_[1080p]_[YTS]_[YIFY] in Movies, by YTSAGx 2 minutes 1.7 GB 20742 93102
Download Magnet English  Gentleman_Jack_S01E05_720p_WEBRip_x264-TBS[TGx] in TV, by mazemaze16 7 minutes 1.3 GB 36655 10126
Download Magnet English  Gentleman_Jack_S01E05_720p_WEBRip_x264-TBS_[eztv] in TV, by EZTVag 7 minutes 1.3 GB 82137 62366
Download Magnet English  90_Day_Fiance_What_Now_s03e04_REAL_HDTV_WebRip_allone in TV, by allone 7 minutes 555.4 MB 33931 66171
Download Magnet English  Ghosts-S01-Series_1--2019-BBC-720p-w_subs-x265-HEVC in TV, by uggauga 7 minutes 901.6 MB 3505 76948
Download Magnet English  Suburban_Gangsters_S01E01_480p_x264-mSD[TGx] in TV, by mazemaze16 7 minutes 153.1 MB 81448 33771
Download Magnet English  American_Dad_S15E06_XviD-AFG[TGx] in TV, by mazemaze16 17 minutes 200.2 MB 30557 47549
Download Magnet English  American_Dad_S15E06_720p_WEBRip_x265-MiNX[TGx] in TV, by mazemaze16 17 minutes 72.8 MB 80746 78153
Download Magnet English  Suburban_Gangsters_S01E01_480p_x264-mSD_[eztv] in TV, by EZTVag 17 minutes 152.6 MB 14759 64149
Download Magnet English  American_Dad_S15E06_480p_x264-mSD_[eztv] in TV, by EZTVag 17 minutes 51.0 MB 94612 2270




Recent Searches

Home - Browse Torrents - Upload Torrent - Recent Torrents - Login - Register - FAQ

Can't load ExtraTorrent.Network
2006-2018 ExtraTorrent.Network