ExtraTorrent

Login   |   Register   |   Home





Browse Torrents
| TorrentCounter | Search Cloud | | | | | FAQ  

» » Aspirante vedovo (2013) H264 italian Ac3-5 1-MIRCrew

Loading...
Torrent Download                                Magnet Link                                      Watch Online


Download Aspirante vedovo (2013) H264 italian Ac3-5 1-MIRCrew extratorrent


Download torrent:
Info hash 277F4A9AA1836717F2A22878E22A8449BC30FF83
Torrent ID14020142
Comments: Sort Read Comments
Category: Movies
Health:
 Seeders: 4 |  Leechers: 2 |  Completed: 802
Torrent language: Italian Italian
Total Size: 1,016.4 MB
Uploader: robbyrs Trusted Uploader Site Friend Superman Sun
Torrent added: 14-03-2019, 19:45:04
Views: 33



Extratorrent Download Torrent

Aspirante vedovo (2013).H264.italian.Ac3-5.1-MIRCrew NO FOUND ONLY ORIGINAL RELEASE My release is always in double track audio italian and Original audio for select it use VLC or dvd player home not use wmp Aspirante vedovo (2013) [/url] Titolo originale Aspirante vedovo Paese di produzione Italia Anno 2013 Durata 85 min Genere commedia Regia Massimo Venier Soggetto Rodolfo Sonego, Fabio Carpi, Dino Risi Sceneggiatura Massimo Venier, Ugo Chiti, Massimo Pellegrini, Piero Guerrera Luciana Littizzetto: Susanna Almiraghi Fabio De Luigi: Alberto Nardi Alessandro Besentini: Stucchi Francesco Brandi: Giancarlo Roberto Citran: Fenoglio Bebo Storti: Pier Ninni Bruschetta: Perlasca Clizia Fornasier: Giada Fulvio Falzarano: padre di Giada Alessandra Raichi: madre di Giada Andrea Bruschi: uomo d'affari Stefano Chiodaroli: Arturo Paolo Pierobon: operaio rumeno Tatti Sanguineti: psichiatra Alberto Nardi è un imprenditore fallimentare il cui successo più importante è stato sposarsi con la ricca e potente industriale Susanna Almiraghi. Alberto Nardi is a bankruptcy entrepreneur whose most important success was to marry the rich and powerful industrialist Susanna Almiraghi. General Unique ID : 87240180141356484630134252462536921511 (0x41A1D8F7A5B3BCC939C66AA2C65411A7) Complete name : Aspirante vedovo (2013).H264.ita.sub.ita-MIRCrew\Aspirante vedovo (2013).H264.ita.sub.ita-MIRCrew.mkv Format : Matroska Format version : Version 4 / Version 2 File size : 1 012 MiB Duration : 1h 25mn Overall bit rate : 1 665 Kbps Movie name : MIRCrew Encoded date : UTC 2019-02-28T11:15:13Z Writing application : mkvmerge v26.0.0 ('In The Game') 64-bit Writing library : Lavf55.12.0 Video ID : 1 Format : AVC Format/Info : Advanced Video Codec Format profile : [email protected] Format settings, CABAC : Yes Format settings, ReFrames : 4 frames Codec ID : V_MPEG4/ISO/AVC Duration : 1h 25mn Bit rate : 1 300 Kbps Width : 720 pixels Height : 304 pixels Display aspect ratio : 2.35:1 Frame rate : 25.000 fps Color space : YUV Chroma subsampling : 4:2:0 Bit depth : 8 bits Scan type : Progressive Bits/(Pixel*Frame) : 0.238 Stream size : 759 MiB (75%) Title : MIRCrew Writing library : x264 core 142 r2479 dd79a61 Encoding settings : cabac=1 / ref=1 / deblock=1:-1:-1 / analyse=0x1:0x111 / me=hex / subme=2 / psy=1 / psy_rd=1.00:0.15 / mixed_ref=0 / me_range=16 / chroma_me=1 / trellis=0 / 8x8dct=0 / cqm=0 / deadzone=21,11 / fast_pskip=1 / chroma_qp_offset=0 / threads=6 / lookahead_threads=2 / sliced_threads=0 / nr=0 / decimate=1 / interlaced=0 / bluray_compat=0 / constrained_intra=0 / bframes=3 / b_pyramid=2 / b_adapt=1 / b_bias=0 / direct=1 / weightb=1 / open_gop=0 / weightp=1 / keyint=250 / keyint_min=25 / scenecut=40 / intra_refresh=0 / rc_lookahead=10 / rc=abr / mbtree=1 / bitrate=1300 / ratetol=1.0 / qcomp=0.60 / qpmin=0 / qpmax=69 / qpstep=4 / vbv_maxrate=50000 / vbv_bufsize=62500 / nal_hrd=none / filler=0 / ip_ratio=1.40 / aq=1:1.00 Language : Italian Default : Yes Forced : No DURATION : 01:25:00.080000000 NUMBER_OF_FRAMES : 127502 NUMBER_OF_BYTES : 815633170 _STATISTICS_WRITING_APP : mkvmerge v26.0.0 ('In The Game') 64-bit _STATISTICS_WRITING_DATE_UTC : 2019-02-28 13:34:18 _STATISTICS_TAGS : BPS DURATION NUMBER_OF_FRAMES NUMBER_OF_BYTES Color primaries : BT.470-6 System B, BT.470-6 System G, BT.601-6 625, BT.1358 625, BT.1700 625 PAL, BT.1700 625 SECAM Transfer characteristics : BT.709-5, BT.1361 Matrix coefficients : BT.601-6 525, BT.1358 525, BT.1700 NTSC, SMPTE 170M Audio ID : 2 Format : AC-3 Format/Info : Audio Coding 3 Mode extension : CM (complete main) Codec ID : A_AC3 Duration : 1h 25mn Bit rate mode : Constant Bit rate : 384 Kbps Channel(s) : 6 channels Channel positions : Front: L C R, Side: L R, LFE Sampling rate : 48.0 KHz Bit depth : 16 bits Compression mode : Lossy Delay relative to video : -5ms Stream size : 233 MiB (23%) Title : Ita Ac3 5.1 Language : Italian Default : Yes Forced : No DURATION : 01:25:00.032000000 NUMBER_OF_FRAMES : 159376 NUMBER_OF_BYTES : 244801536 _STATISTICS_WRITING_APP : mkvmerge v26.0.0 ('In The Game') 64-bit _STATISTICS_WRITING_DATE_UTC : 2019-02-28 13:34:18 _STATISTICS_TAGS : BPS DURATION NUMBER_OF_FRAMES NUMBER_OF_BYTES Menu 00:00:00.000 : :Chapter 1 00:05:05.000 : :Chapter 2 00:08:25.160 : :Chapter 3 00:14:07.400 : :Chapter 4 00:22:09.320 : :Chapter 5 00:27:39.080 : :Chapter 6 00:32:29.960 : :Chapter 7 00:37:17.000 : :Chapter 8 00:41:58.280 : :Chapter 9 00:46:36.200 : :Chapter 10 00:51:03.080 : :Chapter 11 01:01:15.080 : :Chapter 12 01:04:07.400 : :Chapter 13 01:08:04.040 : :Chapter 14 01:14:08.360 : :Chapter 15 01:18:29.000 : :Chapter 16




Related Torrents




Recent Searches

Home - Browse Torrents - Upload Torrent - Recent Torrents - Login - Register - FAQ

Can't load ExtraTorrent.Network
2006-2018 ExtraTorrent.Network