ExtraTorrent

Login   |   Register   |   Home





Browse Torrents
| TorrentCounter | Search Cloud | | | | | FAQ  

» » There's Nothing Out There 1991 Unrated x264 720p Esub BluRay Dual Audio English Hindi GOPISAHI

Loading...
Torrent Download                                Magnet Link                                      Watch Online


Download There's Nothing Out There 1991 Unrated x264 720p Esub BluRay Dual Audio English Hindi GOPISAHI extratorrent


Download torrent:
Info hash 88F28AB07CBFFA0704456351B44C16AFE0FABDF5
Torrent ID14020339
Comments: Sort Read Comments
Category: Movies
Health:
 Seeders: n/a |  Leechers: n/a |  Completed: n/a
Torrent language: English English
Total Size: 710.0 MB
Uploader: PENDUDESI Trusted Uploader Site Friend Superman Sun
Torrent added: 15-03-2019, 04:20:04
Views: 43



Extratorrent Download Torrent



https://www.gopisahi.pw/



There's Nothing Out There 1991 Unrated x264 720p Esub BluRay Dual Audio English Hindi GOPISAHI


Format : Matroska
Format version : Version 4 / Version 2
File size : 710 MiB
Duration : 1 h 30 min
Overall bit rate : 1 094 kb/s
Movie name : There's Nothing Out There 1991 UNRATED GOPISAHI

Video
Format : AVC
Format/Info : Advanced Video Codec
Codec ID : V_MPEG4/ISO/AVC
Duration : 1 h 30 min
Bit rate : 899 kb/s
Width : 1 280 pixels
Height : 688 pixels
Display aspect ratio : 1.85:1
Frame rate mode : Constant
Frame rate : 23.976 (24000/1001) FPS
Color space : YUV
Chroma subsampling : 4:2:0
Bit depth : 8 bits
Scan type : Progressive
Bits/(Pixel*Frame) : 0.043
Stream size : 583 MiB (82%)
Title : GOPISAHI
Writing library : x264 core 157 r2935 545de2f

Audio #1
Format : AAC
Format/Info : Advanced Audio Codec
Duration : 1 h 30 min
Bit rate : 96.0 kb/s
Channel(s) : 2 channels
Channel positions : Front: L R
Sampling rate : 48.0 kHz
Frame rate : 46.875 FPS (1024 SPF)
Compression mode : Lossy
Delay relative to video : -21 ms
Stream size : 62.6 MiB (9%)
Title : GOPISAHI
Language : Hindi

Audio #2
Format : AAC
Duration : 1 h 30 min
Bit rate : 96.0 kb/s
Channel(s) : 2 channels
Channel positions : Front: L R
Sampling rate : 48.0 kHz
Frame rate : 46.875 FPS (1024 SPF)
Compression mode : Lossy
Delay relative to video : -21 ms
Stream size : 62.5 MiB (9%)
Title : GOPISAHI
Language : English

Text
Language : English








Related Torrents




Recent Searches

Home - Browse Torrents - Upload Torrent - Recent Torrents - Login - Register - FAQ

Can't load ExtraTorrent.Network
2006-2018 ExtraTorrent.Network