ExtraTorrent

Login   |   Register   |   Home





Browse Torrents
| TorrentCounter | Search Cloud | | | | | FAQ  

» » Fantastic Beasts The Crimes of Grindelwald (2018) Extended 1080p BDRip x264 [Hindi DD5 1 - English DD5 1] - MSUBS ~ Ranvijay [Team SSX]

Loading...
Torrent Download                                Magnet Link                                      Watch Online


Download Fantastic Beasts The Crimes of Grindelwald (2018) Extended 1080p BDRip x264 [Hindi DD5 1 - English DD5 1] - MSUBS ~ Ranvijay [Team SSX] extratorrent


Download torrent:
Info hash BE1415826226F866E59851016960F7CDEF2F5098
Torrent ID14020425
Comments: Sort Read Comments
Category: Movies
Health:
 Seeders: 2 |  Leechers: 4 |  Completed: 349
Torrent language: Hindi Hindi
Total Size: 4.8 GB
Uploader: TheFighter Trusted Uploader Site Friend Superman Sun
Torrent added: 15-03-2019, 07:15:05
Views: 84



Extratorrent Download Torrent











Fantastic Beasts The Crimes of Grindelwald (2018) Extended 1080p BDRip x264 [Hindi DD5.1 - English DD5.1] - MSUBS ~ Ranvijay [Team SSX]

Thanks To Hammer For Hindi Audio & Peter Parker For Sync With Extended

Buy RDP Online


Format : Matroska
Format version : Version 4 / Version 2
File size : 4.77 GiB
Duration : 2 h 20 min
Overall bit rate : 4 841 kb/s
Movie name : Fantastic Beasts The Crimes of Grindelwald (2018) Extended 1080p BDRip x264 [Hindi DD5.1 - English DD5.1] - MSUBS ~ Ranvijay

Video
ID : 1
Format : AVC
Format/Info : Advanced Video Codec
Duration : 2 h 20 min
Bit rate : 4 000 kb/s
Width : 1 920 pixels
Height : 800 pixels
Display aspect ratio : 2.40:1
Frame rate mode : Constant
Frame rate : 23.976 (24000/1001) FPS
Color space : YUV
Chroma subsampling : 4:2:0
Bit depth : 8 bits
Scan type : Progressive
Bits/(Pixel*Frame) : 0.109
Stream size : 3.93 GiB (82%)
Title : ~Ranvijay~

Audio #1
ID : 2
Format : AC-3
Format/Info : Audio Coding 3
Codec ID : A_AC3
Duration : 2 h 20 min
Bit rate mode : Constant
Bit rate : 448 kb/s
Channel(s) : 6 channels
Channel positions : Front: L C R, Side: L R, LFE
Sampling rate : 48.0 kHz
Frame rate : 31.250 FPS (1536 SPF)
Bit depth : 16 bits
Compression mode : Lossy
Stream size : 452 MiB (9%)
Title : ~Ranvijay~
Language : Hindi
Service kind : Complete Main
Default : Yes
Forced : Yes

Audio #2
ID : 3
Format : AC-3
Format/Info : Audio Coding 3
Codec ID : A_AC3
Duration : 2 h 20 min
Bit rate mode : Constant
Bit rate : 384 kb/s
Channel(s) : 2 channels
Channel positions : Front: L R
Sampling rate : 48.0 kHz
Frame rate : 31.250 FPS (1536 SPF)
Bit depth : 16 bits
Compression mode : Lossy
Stream size : 387 MiB (8%)
Title : ~Ranvijay~
Language : English
Service kind : Complete Main
Default : No
Forced : No

Text #1
ID : 4
Format : PGS
Muxing mode : zlib
Codec ID : S_HDMV/PGS
Codec ID/Info : Picture based subtitle format used on BDs/HD-DVDs
Duration : 2 h 20 min
Bit rate : 26.8 kb/s
Count of elements : 3126
Stream size : 27.0 MiB (1%)
Title : ~Ranvijay~
Language : English
Default : Yes
Forced : Yes

Text #2
ID : 5
Format : PGS
Muxing mode : zlib
Codec ID : S_HDMV/PGS
Codec ID/Info : Picture based subtitle format used on BDs/HD-DVDs
Duration : 2 h 20 min
Bit rate : 13.0 kb/s
Count of elements : 2618
Stream size : 13.0 MiB (0%)
Title : ~Ranvijay~
Language : Arabic
Default : No
Forced : No

Menu
00:00:00.000 : :Chapter 01
00:07:15.309 : :Chapter 02
00:22:19.713 : :Chapter 03
00:34:26.856 : :Chapter 04
00:47:43.652 : :Chapter 05
00:57:10.760 : :Chapter 06
01:05:06.110 : :Chapter 07
01:18:47.431 : :Chapter 08
01:27:32.372 : :Chapter 09
01:41:58.821 : :Chapter 10
01:50:17.319 : :Chapter 11
01:58:50.998 : :Chapter 12
02:07:40.486 : :Chapter 13
















Don't walk as you are king, walk as you don't care who the king is....!!







Related Torrents




Recent Searches

Home - Browse Torrents - Upload Torrent - Recent Torrents - Login - Register - FAQ

Can't load ExtraTorrent.Network
2006-2018 ExtraTorrent.Network