ExtraTorrent

Login   |   Register   |   Home





Browse Torrents
| Search Cloud | | | | | FAQ  

» » Aquaman (2018) 720p Hindi Dubbed (Cleaned) BRRip x264 Mp3 ESub by Full4movies

Loading...
Torrent Download                                Magnet Link                                      Watch Online


Download Aquaman (2018) 720p Hindi Dubbed (Cleaned) BRRip x264 Mp3 ESub by Full4movies extratorrent


Download torrent:
Info hash F3A081D46DE61D66BE4179C5CA3F21C8BA6E625B
Torrent ID14020470
Comments: Sort Read Comments
Category: Movies
Health:
 Seeders: 2 |  Leechers: 3 |  Completed: 322
Torrent language: Hindi Hindi
Total Size: 1.3 GB
Uploader: shmasti Trusted Uploader Site Friend Superman Sun
Torrent added: 15-03-2019, 09:10:04
Views: 58



Extratorrent Download Torrent Aquaman (2018) 720p Hindi Dubbed (Cleaned) …
https://1337x.is/torrent/3650172/Aquaman-2018-720p-Hindi-Dubbed...
Aquaman (2018) 720p Hindi Dubbed (Cleaned) …
https://etcimg.com/torrents/Aquaman (2018) 720p Hindi Dubbed...
Aquaman 2018 720P - EXT Torrents
https://ext.to/aquaman-m3662/720p
Aquaman (2018) 720p | HEVC | 480p HE-HDRip …
https://bnmovies.club/aquaman-2018-720p-hevc-480p-he-hdrip-x264-dual-audio-hindi...
Bumblebee (2018) Hindi Dubbed (Cleaned) BRRip …
https://newtorrents.net/Bumblebee-(2018)-Hindi-Dubbed-(Cleaned...
TorrentParadise - Aquaman (2018) Hindi …
https://torrentparadise.to/torrent/47335897/aquaman-2018-hindi...
Aquaman (2018) 720p Hindi Dubbed (Cleaned) …
https://monova.org/F3A081D46DE61D66BE4179C5CA3F21C8BA6E625B
Bumblebee (2018) 720p Hindi Dubbed …
https://www.btzhizhu.me/cililianjie/35844219
Aquaman (2018) Hindi Dubbed (Cleaned) BRRip …
https://glotorrents.unblocked.lol/aquaman-2018-hindi-dubbed...
海王下载|海王电影|720p|1080p高清BT种子下载 - …
https://www.aiktt.com/113006/6552275.html





General
Complete name : Aquaman (2018) 720p Hindi Dubbed (Cleaned) BRRip x264 Mp3 ESub by Full4movies.mkv
Format : Matroska
Format version : Version 4
File size : 1.30 GiB
Duration : 2 h 23 min
Overall bit rate mode : Variable
Overall bit rate : 1 299 kb/s
Movie name : www.full4movies.me
Encoded date : UTC 2019-03-15 07:17:52
Writing application : mkvmerge v6.9.1 ('Blue Panther') 32bit built on Apr 18 2014 18:15:44
Writing library : libebml v1.3.0 + libmatroska v1.4.1

Video
ID : 1
Format : AVC
Format/Info : Advanced Video Codec
Format profile : [email protected]
Format settings : CABAC / 9 Ref Frames
Format settings, CABAC : Yes
Format settings, ReFrames : 9 frames
Codec ID : V_MPEG4/ISO/AVC
Duration : 2 h 23 min
Bit rate : 1 200 kb/s
Width : 1 280 pixels
Height : 720 pixels
Display aspect ratio : 16:9
Frame rate mode : Constant
Frame rate : 23.976 FPS
Color space : YUV
Chroma subsampling : 4:2:0
Bit depth : 8 bits
Scan type : Progressive
Bits/(Pixel*Frame) : 0.054
Stream size : 1.18 GiB (91%)
Writing library : x264 core 157 r2935 545de2f
Language : English
Default : Yes
Forced : No

Audio
ID : 2
Format : MPEG Audio
Format version : Version 1
Format profile : Layer 3
Format settings : Joint stereo / MS Stereo
Codec ID : A_MPEG/L3
Codec ID/Hint : MP3
Duration : 2 h 25 min
Bit rate mode : Variable
Bit rate : 96.0 kb/s
Channel(s) : 2 channels
Sampling rate : 48.0 kHz
Frame rate : 41.667 FPS (1152 SPF)
Compression mode : Lossy
Stream size : 99.6 MiB (7%)
Writing library : LAME3.99r
Encoding settings : -m j -V 4 -q 3 -lowpass 15.1 --abr 96
Language : Hindi
Default : Yes
Forced : No

Text
ID : 3
Format : UTF-8
Codec ID : S_TEXT/UTF8
Codec ID/Info : UTF-8 Plain Text
Language : English
Default : Yes
Forced : No

Screen Shoots







Related Torrents




Recent Searches

Home - Browse Torrents - Upload Torrent - Recent Torrents - Login - Register - FAQ

Can't load ExtraTorrent.Network
2006-2018 ExtraTorrent.Network