ExtraTorrent

Login   |   Register   |   Home





Browse Torrents
| Search Cloud | | | | | FAQ  

» » Jackpot (2013) Hindi - 720p WEB-DL - x264 - AAC -Sun George (Requested)

Loading...
Torrent Download                                Magnet Link                                      Watch Online


Download Jackpot (2013) Hindi - 720p WEB-DL - x264 - AAC -Sun George (Requested) extratorrent


Download torrent:
Info hash 09DE12A5795C2875029257F8E53EE89522DB4284
Torrent ID14020511
Comments: Sort Read Comments
Category: Movies
Health:
 Seeders: 1 |  Leechers: 1 |  Completed: 10
Torrent language: Hindi Hindi
Total Size: 1.4 GB
Uploader: Sungeorge Trusted Uploader Site Friend Superman Sun
Torrent added: 15-03-2019, 11:10:04
Views: 79



Extratorrent Download Torrent nuketokex’s blog
nuketokex.hatenablog.com
e.forclaytonnc.com
e.forclaytonnc.com/tiz
платья "size plus " | Свадебный салон Фея
https://feya74.com.ru/blog/svadebnye-platya-razmera-size-plus



Jackpot (2013) Hindi - 720p WEB-DL - x264 - AAC -Sun George (Requested)






https://www.imdb.com/title/tt3309662/











===================================================================


Source : DTOne (Thanks)


General
Format : Matroska
Format version : Version 4
File size : 1.36 GiB
Duration : 1 h 30 min
Overall bit rate : 2 151 kb/s
Movie name : Jackpot (2013) Hindi - 720p WEB-DL - x264 - AAC -Sun George (Requested)


===================================================================


Video
ID : 1
Format : AVC
Format/Info : Advanced Video Codec
Format profile : [email protected]
Format settings : CABAC / 5 Ref Frames
Format settings, CABAC : Yes
Format settings, RefFrames : 5 frames
Codec ID : V_MPEG4/ISO/AVC
Duration : 1 h 30 min
Bit rate : 2 000 kb/s
Width : 1 280 pixels
Height : 544 pixels
Display aspect ratio : 2.35:1
Frame rate mode : Constant
Frame rate : 24.000 FPS
Color space : YUV
Chroma subsampling : 4:2:0
Bit depth : 8 bits
Scan type : Progressive
Bits/(Pixel*Frame) : 0.120
Stream size : 1.25 GiB (92%)
Title : Sun George


===================================================================


Audio
ID : 2
Format : AAC LC
Format/Info : Advanced Audio Codec Low Complexity
Codec ID : A_AAC-2
Duration : 1 h 30 min
Bit rate : 171 kb/s
Channel(s) : 2 channels
Channel layout : L R
Sampling rate : 48.0 kHz
Frame rate : 46.875 FPS (1024 SPF)
Compression mode : Lossy
Stream size : 111 MiB (8%)
Title : Sun George
Language : Hindi
Default : Yes
Forced : No























Related Torrents




Recent Searches

Home - Browse Torrents - Upload Torrent - Recent Torrents - Login - Register - FAQ

Can't load ExtraTorrent.Network
2006-2018 ExtraTorrent.Network