ExtraTorrent

Login   |   Register   |   Home





Browse Torrents
| Search Cloud | | | | | FAQ  

» » Spider-Man Into The Spider-Verse 2018 1080p BluRay x264 Eng-Hindi AC3 DD 5 1 [Team SSX]

Loading...
Torrent Download                                Magnet Link                                      Watch Online


Download Spider-Man Into The Spider-Verse 2018 1080p BluRay x264 Eng-Hindi AC3 DD 5 1 [Team SSX] extratorrent


Download torrent:
Info hash 0C63B4FBA9119303D2BAF56F69E5B19394DFC59F
Torrent ID14020520
Comments: Sort Read Comments
Category: Movies
Health:
 Seeders: 4 |  Leechers: 6 |  Completed: 296
Torrent language: Hindi Hindi
Total Size: 2.3 GB
Uploader: DarkRelease Trusted Uploader Site Friend Superman Sun
Torrent added: 15-03-2019, 11:30:05
Views: 50



Extratorrent Download Torrent








Spider-Man Into The Spider-Verse 2018 1080p BluRay x264 Eng-Hindi AC3 DD 5.1 [Team SSX]





General

Format : Matroska
Format version : Version 4
File size : 2.24 GiB
Duration : 1 h 56 min
Overall bit rate : 2 744 kb/s


Video
ID : 1
Format : AVC
Format/Info : Advanced Video Codec
Format profile : [email protected]
Format settings : CABAC / 4 Ref Frames
Format settings, CABAC : Yes
Format settings, RefFrames : 4 frames
Codec ID : V_MPEG4/ISO/AVC
Duration : 1 h 56 min
Bit rate : 2 150 kb/s
Width : 1 920 pixels
Height : 800 pixels
Display aspect ratio : 2.40:1
Frame rate mode : Constant
Frame rate : 23.976 (24000/1001) FPS
Color space : YUV
Chroma subsampling : 4:2:0
Bit depth : 8 bits
Scan type : Progressive
Bits/(Pixel*Frame) : 0.058
Stream size : 1.75 GiB (78%)
Title : Team SSX
Writing library : x264 core 157

Default : Yes
Forced : No

Audio #1
ID : 2
Format : AC-3
Format/Info : Audio Coding 3
Commercial name : Dolby Digital
Codec ID : A_AC3
Duration : 1 h 56 min
Bit rate mode : Constant
Bit rate : 448 kb/s
Channel(s) : 6 channels
Channel layout : L R C LFE Ls Rs
Sampling rate : 48.0 kHz
Frame rate : 31.250 FPS (1536 SPF)
Bit depth : 16 bits
Compression mode : Lossy
Delay relative to video : -43 ms
Stream size : 374 MiB (16%)
Title : Team SSX
Language : Hindi
Service kind : Complete Main
Default : Yes
Forced : No

Audio #2
ID : 3
Format : AAC LC
Format/Info : Advanced Audio Codec Low Complexity
Codec ID : A_AAC-2
Duration : 1 h 56 min
Bit rate : 144 kb/s
Channel(s) : 2 channels
Channel layout : L R
Sampling rate : 48.0 kHz
Frame rate : 46.875 FPS (1024 SPF)
Compression mode : Lossy
Delay relative to video : -43 ms
Stream size : 120 MiB (5%)
Title : Team SSX
Language : English
Default : No
Forced : No












Hindi Audio - Hammer












Related Torrents




Recent Searches

Home - Browse Torrents - Upload Torrent - Recent Torrents - Login - Register - FAQ

Can't load ExtraTorrent.Network
2006-2018 ExtraTorrent.Network