ExtraTorrent

Login   |   Register   |   Home
Loading...
Browse Torrents
| TorrentCounter | Search Cloud | | | | | FAQ  

» » Impractical Jokers S07E04 Stripteased x 810 (1080p) x264 Phun Psyz

Download Impractical Jokers S07E04 Stripteased x 810 (1080p) x264 Phun Psyz extratorrent


Download torrent: Download Magnet Impractical Jokers S07E04 Stripteased x 810 (1080p) x264 Phun Psyz
Info hash D2F4CA564B82D289D318B8C803813D39244C8079
Torrent ID14020556
Comments: Sort Read Comments
Category: TV
Health:
 Seeders: 2 |  Leechers: n/a |  Completed: 4
Torrent language: English English
Total Size: 327.7 MB
Uploader: PhunPsyz Trusted Uploader Site Friend Superman Sun
Torrent added: 15-03-2019, 13:10:04
Views: 35



Extratorrent Download Torrent



www.imdb.com/title/tt8098424/?ref_=ttep_ep5

The jokers must do as they are told while pretending to be dentists, then try not to laugh as they go head to head in the food court. The loser suffers a revealing punishment.

Source: ViSUM (iTunes)







Format : MPEG-4
Format profile : Base Media / Version 2
Codec ID : mp42 (isom/iso2/avc1/mp41)
File size : 328 MiB
Duration : 24 min 44 s
Overall bit rate mode : Variable
Overall bit rate : 1 852 kb/s
Writing application : HandBrake 1.2.0 2018121700

Video
ID : 1
Format : AVC
Format/Info : Advanced Video Codec
Format profile : [email protected]
Format settings : CABAC / 1 Ref Frames
Format settings, CABAC : Yes
Format settings, ReFrames : 1 frame
Codec ID : avc1
Codec ID/Info : Advanced Video Coding
Duration : 24 min 44 s
Bit rate : 1 686 kb/s
Width : 1 440 pixels
Height : 810 pixels
Display aspect ratio : 16:9
Frame rate mode : Constant
Frame rate : 29.970 (30000/1001) FPS
Color space : YUV
Chroma subsampling : 4:2:0
Bit depth : 8 bits
Scan type : Progressive
Bits/(Pixel*Frame) : 0.048
Stream size : 298 MiB (91%)
Writing library : x264 core 157 r2935 545de2f

Audio
ID : 2
Format : AAC LC
Format/Info : Advanced Audio Codec Low Complexity
Codec ID : mp4a-40-2
Duration : 24 min 44 s
Bit rate mode : Constant
Bit rate : 160 kb/s
Channel(s) : 2 channels
Channel layout : L R
Sampling rate : 48.0 kHz
Frame rate : 46.875 FPS (1024 SPF)
Compression mode : Lossy
Stream size : 28.2 MiB (9%)
Title : Stereo
Language : English

Text
Language : English
Default : Yes
Forced : No





   


Related Torrents
Browse Movies Torrents Related Torrents added recently in our database RSS  
Added  Size  Sort S  Sort L  Sort Health
Download Magnet English  American_Dad_S15E06_XviD-AFG[TGx] in TV, by mazemaze16 6 minutes 200.2 MB 68635 28501
Download Magnet English  American_Dad_S15E06_720p_WEBRip_x265-MiNX[TGx] in TV, by mazemaze16 6 minutes 72.8 MB 39304 59895
Download Magnet English  Suburban_Gangsters_S01E01_480p_x264-mSD_[eztv] in TV, by EZTVag 6 minutes 152.6 MB 11197 25023
Download Magnet English  American_Dad_S15E06_480p_x264-mSD_[eztv] in TV, by EZTVag 6 minutes 51.0 MB 72190 21021
Download Magnet English  Diesel_Brothers_S05E07_480p_x264-mSD_[eztv] in TV, by EZTVag 6 minutes 249.0 MB 91825 2277
Download Magnet English  Tommy_Page_-_Paintings_in_My_Mind_Mp3_(V0)___SSloco in Music, by Chicken1337 11 minutes 79.7 MB 58149 86526
Download Magnet English  American_Dad_S15E06_720p_WEBRip_x264-TBS[ettv] in TV, by EtHD 16 minutes 152.4 MB 40120 44738
Download Magnet English  Diesel_Brothers_S05E07_720p_WEB_x264-TBS_[eztv] in TV, by EZTVag 16 minutes 955.8 MB 89968 18756
Download Magnet English  Diesel_Brothers_S05E07_WEB_x264-TBS_[eztv] in TV, by EZTVag 16 minutes 341.5 MB 12178 32640
Download Magnet English  Egypts_Unexplained_Files_S01E08_Ramses_Forbidden_City_480p_x___ in TV, by EZTVag 16 minutes 206.1 MB 39985 67438




Recent Searches

Home - Browse Torrents - Upload Torrent - Recent Torrents - Login - Register - FAQ

Can't load ExtraTorrent.Network
2006-2018 ExtraTorrent.Network