ExtraTorrent

Login   |   Register   |   Home
Browse Torrents
| TorrentCounter | Search Cloud | | | | | FAQ  

» » Saadey Cm Saab 2016 x264 720p HD Esub Punjabi GOPISAHI

Download Saadey Cm Saab 2016 x264 720p HD Esub Punjabi GOPISAHI extratorrent


Download torrent: Download Magnet Saadey Cm Saab 2016 x264 720p HD Esub Punjabi GOPISAHI
Info hash FC742DEE62792E896CC8FF3370B04AF9C696117E
Torrent ID14038464
Comments: Sort Read Comments
Category: Movies
Health:
 Seeders: 1 |  Leechers: n/a |  Completed: n/a
Torrent language: Punjabi Punjabi
Total Size: 837.0 MB
Uploader: PENDUDESI Trusted Uploader Site Friend Superman Sun
Torrent added: 14-04-2019, 03:10:03
Views: 50



Extratorrent Download Torrent



https://www.gopisahi.pw/



Saadey Cm Saab 2016 x264 720p HD Esub Punjabi GOPISAHI

Format : Matroska
Format version : Version 4 / Version 2
File size : 837 MiB
Duration : 2 h 11 min
Overall bit rate : 893 kb/s
Movie name : Saadey Cm Saab 2016 GOPISAHI

Video
Format : AVC
Format/Info : Advanced Video Codec
Codec ID : V_MPEG4/ISO/AVC
Duration : 2 h 11 min
Bit rate : 699 kb/s
Width : 1 280 pixels
Height : 544 pixels
Display aspect ratio : 2.35:1
Frame rate mode : Constant
Frame rate : 24.000 FPS
Color space : YUV
Chroma subsampling : 4:2:0
Bit depth : 8 bits
Scan type : Progressive
Bits/(Pixel*Frame) : 0.042
Stream size : 655 MiB (78%)
Title : GOPISAHI
Writing library : x264 core 157 r2935 545de2f

Audio
Format : AAC
Duration : 2 h 11 min
Bit rate : 192 kb/s
Channel(s) : 6 channels
Channel positions : Front: L C R, Side: C, Back: L R
Sampling rate : 48.0 kHz
Frame rate : 46.875 FPS (1024 SPF)
Compression mode : Lossy
Delay relative to video : -21 ms
Stream size : 180 MiB (21%)
Title : GOPISAHI
Language : Panjabi

Text
Language : English







   


Related Torrents




Recent Searches

Home - Browse Torrents - Upload Torrent - Recent Torrents - Login - Register - FAQ

Can't load ExtraTorrent.Network
2006-2018 ExtraTorrent.Network