ExtraTorrent

Login   |   Register   |   Home
Browse Torrents
| TorrentCounter | Search Cloud | | | | | FAQ  

» » Lowriders 2016 x264 720p Esub BluRay Dual Audio English Hindi GOPISAHI

Download Lowriders 2016 x264 720p Esub BluRay Dual Audio English Hindi GOPISAHI extratorrent


Download torrent: Download Magnet Lowriders 2016 x264 720p Esub BluRay Dual Audio English Hindi GOPISAHI
Info hash EF380364C8DBC921B2FFB1F52A86D8BE805892B5
Torrent ID14040350
Comments: Sort Read Comments
Category: Movies
Health:
 Seeders: 5 |  Leechers: 1 |  Completed: 37
Torrent language: English English
Total Size: 904.0 MB
Uploader: PENDUDESI Trusted Uploader Site Friend Superman Sun
Torrent added: 17-04-2019, 08:15:04
Views: 32



Extratorrent Download Torrent



https://www.gopisahi.pw/



Lowriders 2016 x264 720p Esub BluRay Dual Audio English Hindi GOPISAHI

Format : Matroska
Format version : Version 4 / Version 2
File size : 904 MiB
Duration : 1 h 38 min
Overall bit rate : 1 287 kb/s
Movie name : Lowriders 2016 GOPISAHI

Video
ID : 1
Format : AVC
Format/Info : Advanced Video Codec
Format profile : [email protected]
Codec ID : V_MPEG4/ISO/AVC
Duration : 1 h 38 min
Bit rate : 900 kb/s
Width : 1 280 pixels
Height : 534 pixels
Display aspect ratio : 2.40:1
Original display aspect ratio : 2.40:1
Frame rate mode : Constant
Frame rate : 23.976 (24000/1001) FPS
Color space : YUV
Chroma subsampling : 4:2:0
Bit depth : 8 bits
Scan type : Progressive
Bits/(Pixel*Frame) : 0.055
Stream size : 632 MiB (70%)
Title : GOPISAHI
Writing library : x264 core 148

Audio #1
Format : AAC
Duration : 1 h 38 min
Bit rate : 192 kb/s
Channel(s) : 6 channels
Channel positions : Front: L C R, Side: C, Back: L R
Sampling rate : 48.0 kHz
Frame rate : 46.875 FPS (1024 SPF)
Compression mode : Lossy
Delay relative to video : 966 ms
Stream size : 135 MiB (15%)
Title : GOPISAHI
Language : Hindi

Audio #2
Format : AAC
Duration : 1 h 38 min
Bit rate : 192 kb/s
Channel(s) : 6 channels
Channel positions : Front: L C R, Side: C, Back: L R
Sampling rate : 48.0 kHz
Frame rate : 46.875 FPS (1024 SPF)
Compression mode : Lossy
Stream size : 135 MiB (15%)
Title : GOPISAHI
Language : English

Text
Language : English






   


Related Torrents




Recent Searches

Home - Browse Torrents - Upload Torrent - Recent Torrents - Login - Register - FAQ

Can't load ExtraTorrent.Network
2006-2018 ExtraTorrent.Network