ExtraTorrent

Login   |   Register   |   Home
Browse Torrents
| TorrentCounter | Search Cloud | | | | | FAQ  

» » Ben 10 Destroy All Aliens 2012 x264 720p Esub BluRay Dual Audio Hindi English Telugu Tamil GOPISAHI

Download Ben 10 Destroy All Aliens 2012 x264 720p Esub BluRay Dual Audio Hindi English Telugu Tamil GOPISAHI extratorrent


Download torrent: Download Magnet Ben 10 Destroy All Aliens 2012 x264 720p Esub BluRay Dual Audio Hindi English Telugu Tamil GOPISAHI
Info hash 8D6392CBE145DA5F20658D0961E123F625D7AC15
Torrent ID14043777
Comments: Sort Read Comments
Category: Movies
Health:
 Seeders: 2 |  Leechers: n/a |  Completed: 59
Torrent language: English English
Total Size: 538.6 MB
Uploader: PENDUDESI Trusted Uploader Site Friend Superman Sun
Torrent added: 23-04-2019, 06:05:04
Views: 25



Extratorrent Download Torrent



https://www.gopisahi.xyz/



Ben 10 Destroy All Aliens 2012 x264 720p Esub BluRay Dual Audio Hindi English Telugu Tamil GOPISAHI

Format : Matroska
Format version : Version 4 / Version 2
File size : 539 MiB
Duration : 1 h 9 min
Overall bit rate : 1 089 kb/s

Video
Format : AVC
Format/Info : Advanced Video Codec
Format profile : [email protected]
Codec ID : V_MPEG4/ISO/AVC
Duration : 1 h 9 min
Bit rate : 699 kb/s
Width : 1 280 pixels
Height : 714 pixels
Display aspect ratio : 16:9
Frame rate mode : Constant
Frame rate : 23.976 (24000/1001) FPS
Color space : YUV
Chroma subsampling : 4:2:0
Bit depth : 8 bits
Scan type : Progressive
Bits/(Pixel*Frame) : 0.032
Stream size : 346 MiB (64%)
Title : GOPISAHI
Writing library : x264 core 157 r2935 545de2f

Audio #1
Format : AAC
Duration : 1 h 9 min
Bit rate : 96.0 kb/s
Channel(s) : 2 channels
Channel positions : Front: L R
Sampling rate : 48.0 kHz
Frame rate : 46.875 FPS (1024 SPF)
Compression mode : Lossy
Delay relative to video : -64 ms
Stream size : 47.7 MiB (9%)
Title : GOPISAHI
Language : Hindi

Audio #2
Format : AAC
Duration : 1 h 9 min
Bit rate : 96.0 kb/s
Channel(s) : 2 channels
Channel positions : Front: L R
Sampling rate : 48.0 kHz
Frame rate : 46.875 FPS (1024 SPF)
Compression mode : Lossy
Delay relative to video : -64 ms
Stream size : 47.8 MiB (9%)
Title : GOPISAHI
Language : English

Audio #3
Format : AAC
Duration : 1 h 9 min
Bit rate : 96.0 kb/s
Channel(s) : 2 channels
Channel positions : Front: L R
Sampling rate : 48.0 kHz
Frame rate : 46.875 FPS (1024 SPF)
Compression mode : Lossy
Delay relative to video : -64 ms
Stream size : 47.7 MiB (9%)
Title : GOPISAHI
Language : Telugu

Audio #4
Format : AAC
Duration : 1 h 9 min
Bit rate : 96.0 kb/s
Channel(s) : 2 channels
Channel positions : Front: L R
Sampling rate : 48.0 kHz
Frame rate : 46.875 FPS (1024 SPF)
Compression mode : Lossy
Delay relative to video : -64 ms
Stream size : 47.7 MiB (9%)
Title : GOPISAHI
Language : Tamil









   


Related Torrents




Recent Searches

Home - Browse Torrents - Upload Torrent - Recent Torrents - Login - Register - FAQ

Can't load ExtraTorrent.Network
2006-2018 ExtraTorrent.Network